<?xml version="1.0" standalone="no"?>
<!DOCTYPE svg PUBLIC "-//W3C//DTD SVG 1.1//EN" "http://www.w3.org/Graphics/SVG/1.1/DTD/svg11.dtd" >
<svg xmlns="http://www.w3.org/2000/svg" xmlns:xlink="http://www.w3.org/1999/xlink" version="1.1">
<metadata>
Created by FontForge 20170731 at Wed Feb  8 00:13:41 2023
 By Aleksey,,,
Copyright (c) 2017 by atipo. All rights reserved.
</metadata>
<defs>
<font id="BasierSquare-SemiBold" horiz-adv-x="1112" >
  <font-face 
    font-family="Basier Square SemiBold"
    font-weight="600"
    font-stretch="normal"
    units-per-em="2048"
    panose-1="2 0 7 0 0 0 0 0 0 0"
    ascent="1638"
    descent="-410"
    x-height="1065"
    cap-height="1434"
    bbox="-80 -502 2396 1995"
    underline-thickness="102"
    underline-position="-563"
    unicode-range="U+001D-2212"
  />
<missing-glyph horiz-adv-x="1925" 
 />
    <glyph glyph-name=".notdef" horiz-adv-x="1925" 
 />
    <glyph glyph-name=".null" horiz-adv-x="0" 
 />
    <glyph glyph-name=".null" horiz-adv-x="0" 
 />
    <glyph glyph-name="nonmarkingreturn" horiz-adv-x="681" 
 />
    <glyph glyph-name="space" unicode=" " horiz-adv-x="585" 
 />
    <glyph glyph-name="exclam" unicode="!" horiz-adv-x="528" 
d="M162 455l-43 782v197h295v-197l-54 -782h-198zM113 0v293h303v-293h-303z" />
    <glyph glyph-name="quotedbl" unicode="&#x22;" horiz-adv-x="880" 
d="M150 872l-48 316v246h279v-246l-47 -316h-184zM547 872l-47 316v246h278v-246l-47 -316h-184z" />
    <glyph glyph-name="numbersign" unicode="#" horiz-adv-x="1431" 
d="M1329 836h-242l-40 -248h180v-238h-221l-60 -350h-250l60 350h-215l-60 -350h-250l60 350h-189v238h230l41 248h-168v237h209l61 361h250l-61 -361h215l61 361h250l-62 -361h201v-237zM797 588l41 248h-215l-41 -248h215z" />
    <glyph glyph-name="dollar" unicode="$" horiz-adv-x="1294" 
d="M1225 414q0 -182 -121 -297q-119 -113 -365 -131v-170h-182v170q-235 21 -360 149q-129 132 -138 338h285q15 -199 213 -233v383l-27 6q-203 43 -313 139q-111 94 -111 279q0 163 121 272q120 108 330 129v170h182v-172q204 -21 332 -146q126 -123 129 -303h-285
q-3 70 -47 123q-46 52 -129 70v-334l35 -8q218 -47 334 -146q117 -102 117 -288zM395 1047q0 -112 162 -152v299q-84 -16 -121 -53q-41 -41 -41 -94zM739 238q197 27 197 170q0 71 -47 112q-50 43 -150 64v-346z" />
    <glyph glyph-name="percent" unicode="%" horiz-adv-x="1734" 
d="M430 713q-156 0 -242 102q-88 101 -88 270q0 170 88 271q86 102 242 102t244 -102q86 -103 86 -271q0 -167 -86 -270q-88 -102 -244 -102zM260 0v20l971 1414h229v-21l-966 -1413h-234zM430 893q137 0 137 192q0 193 -137 193t-137 -193q0 -192 137 -192zM1305 -18
q-157 0 -242 102q-88 101 -88 270q0 170 88 271q85 102 242 102q155 0 243 -102q86 -103 86 -271q0 -167 -86 -270q-88 -102 -243 -102zM1305 162q137 0 137 192q0 193 -137 193q-138 0 -138 -193q0 -192 138 -192z" />
    <glyph glyph-name="ampersand" unicode="&#x26;" horiz-adv-x="1497" 
d="M1423 815v-20l-323 -439l309 -336v-20h-330l-135 150q-155 -168 -397 -168q-189 0 -314 110q-129 111 -129 303q0 214 254 369l21 12q-152 172 -152 322t111 252t287 102h4q187 0 297 -98q110 -101 110 -250q0 -121 -57 -193q-60 -78 -186 -153l-39 -25l176 -190l198 272
h295zM590 911l4 -4l45 29q70 44 96 74q29 37 29 82q0 59 -35 94t-102 35h-4q-61 -3 -95 -37t-34 -88q0 -89 96 -185zM571 229q114 0 205 107l-239 266l-25 -14q-67 -42 -96 -84q-32 -49 -29 -105q0 -71 49 -120q50 -50 135 -50z" />
    <glyph glyph-name="quotesingle" unicode="'" horiz-adv-x="483" 
d="M150 872l-48 316v246h279v-246l-47 -316h-184z" />
    <glyph glyph-name="parenleft" unicode="(" horiz-adv-x="747" 
d="M637 1565v-21q-138 -183 -223 -414q-90 -247 -90 -524q0 -278 90 -522q84 -232 223 -416v-20h-215q-151 170 -254 422q-102 249 -102 536q0 300 100 541q103 246 256 418h215z" />
    <glyph glyph-name="parenright" unicode=")" horiz-adv-x="747" 
d="M326 1565q153 -172 256 -418q100 -241 100 -541q0 -292 -100 -536q-102 -248 -256 -422h-215v20q139 184 223 416q90 244 90 522q0 277 -90 524q-85 231 -223 414v21h215z" />
    <glyph glyph-name="asterisk" unicode="*" horiz-adv-x="995" 
d="M397 723l33 256l-8 4l-203 -149l-98 190l244 70v8l-244 72l98 190l201 -145l8 6l-31 250h215l-30 -250l8 -6l201 145l98 -190l-244 -72v-8l244 -70l-98 -190l-201 149l-8 -4l30 -256h-215z" />
    <glyph glyph-name="plus" unicode="+" horiz-adv-x="1003" 
d="M381 129v395h-371v234h371v395h252v-395h360v-234h-360v-395h-252z" />
    <glyph glyph-name="comma" unicode="," horiz-adv-x="487" 
d="M43 -289v21l63 493h306v-20l-158 -494h-211z" />
    <glyph glyph-name="hyphen" unicode="-" horiz-adv-x="954" 
d="M164 477v246h627v-246h-627z" />
    <glyph glyph-name="period" unicode="." horiz-adv-x="495" 
d="M96 0v293h303v-293h-303z" />
    <glyph glyph-name="slash" unicode="/" horiz-adv-x="897" 
d="M31 -272v20l575 1761h260v-20l-577 -1761h-258z" />
    <glyph glyph-name="zero" unicode="0" horiz-adv-x="1286" 
d="M643 -18q-278 0 -410 200q-133 201 -133 539t133 539q131 198 410 198t410 -198q133 -201 133 -539t-133 -539q-132 -200 -410 -200zM643 225q145 0 203 125q59 124 59 371q0 244 -59 371q-58 122 -203 122t-203 -122q-59 -127 -59 -371q0 -247 59 -371q58 -125 203 -125
z" />
    <glyph glyph-name="one" unicode="1" horiz-adv-x="870" 
d="M442 0v1151h-8l-330 -250h-20v266l356 267h279v-1434h-277z" />
    <glyph glyph-name="two" unicode="2" horiz-adv-x="1165" 
d="M94 0v223l473 484q113 113 162 184q43 67 43 145q0 81 -51 129q-52 49 -146 49q-99 0 -157 -55q-60 -60 -60 -170h-268q0 219 131 344t354 125q214 0 347 -115q131 -116 131 -299q0 -109 -58 -210t-190 -236l-342 -342v-8h612v-248h-981z" />
    <glyph glyph-name="three" unicode="3" horiz-adv-x="1234" 
d="M616 -18q-240 0 -385 118q-147 117 -147 334h274q3 -88 64 -149q59 -62 192 -62q120 0 179 56t59 145q0 92 -64 147q-65 56 -194 56h-125v239h121q104 0 162 49q55 46 55 132q0 72 -53 122q-54 48 -152 48q-109 0 -162 -56q-54 -54 -57 -151h-277q3 208 140 327
q136 121 362 121q209 0 344 -106q138 -108 138 -279q0 -229 -199 -305v-8q105 -33 176 -123q68 -89 68 -211q0 -192 -131 -317q-133 -127 -388 -127z" />
    <glyph glyph-name="four" unicode="4" horiz-adv-x="1204" 
d="M696 0v274h-639v269l568 891h348v-916h178v-244h-178v-274h-277zM328 518h368v586h-8l-360 -578v-8z" />
    <glyph glyph-name="five" unicode="5" horiz-adv-x="1216" 
d="M606 -18q-223 0 -368 127q-146 128 -146 311h277q6 -82 67 -137q58 -58 170 -58q120 0 182 74q60 75 60 182q0 100 -60 172q-61 70 -182 70q-135 0 -223 -111h-268l55 822h860v-246h-633l-26 -326h8q101 88 270 88q215 0 346 -131t131 -338q0 -223 -137 -360
q-139 -139 -383 -139z" />
    <glyph glyph-name="six" unicode="6" horiz-adv-x="1259" 
d="M639 -18q-271 0 -403 190q-136 192 -136 522q0 161 35 301q35 139 101 242q68 105 176 164q105 57 250 57q210 0 337 -112q129 -114 150 -287h-266q-15 68 -72 110q-58 43 -149 43q-148 0 -224 -108q-78 -113 -78 -313h9q115 145 317 145q218 0 346 -137
q127 -139 127 -326q0 -211 -139 -350q-141 -141 -381 -141zM639 225q109 0 180 68q70 67 70 176q0 105 -66 174q-69 66 -184 66q-111 0 -180 -66q-68 -68 -68 -174q0 -108 68 -176t180 -68z" />
    <glyph glyph-name="seven" unicode="7" horiz-adv-x="1107" 
d="M174 0v20l602 1156v8h-727v250h1010v-260l-592 -1174h-293z" />
    <glyph glyph-name="eight" unicode="8" horiz-adv-x="1232" 
d="M915 756q228 -94 228 -344q0 -200 -144 -314q-143 -113 -383 -116q-240 3 -383 116t-143 314q0 250 227 344v8q-184 94 -184 315q0 171 133 277q132 102 350 102q219 0 351 -102q133 -106 133 -277q0 -220 -185 -315v-8zM616 1219q-93 0 -147 -45q-57 -45 -57 -125
q0 -84 57 -129q54 -45 147 -48q93 3 150 48q55 46 55 129q0 79 -55 125q-57 45 -150 45zM616 221q119 3 183 58q63 51 63 151q0 94 -63 148t-183 57q-117 -3 -180 -57q-65 -56 -65 -148q0 -98 65 -151q64 -55 180 -58z" />
    <glyph glyph-name="nine" unicode="9" horiz-adv-x="1259" 
d="M598 -18q-209 0 -338 114q-128 113 -149 285h266q15 -69 72 -111q58 -43 149 -43q144 0 221 111q78 110 78 311h-8q-112 -145 -316 -145q-217 0 -344 139q-129 138 -129 324q0 210 142 352q139 139 379 139q270 0 405 -190q133 -192 133 -523q0 -169 -33 -301
q-34 -135 -102 -241q-66 -102 -176 -162q-109 -59 -250 -59zM621 731q112 0 180 68q65 65 65 172q0 110 -65 178q-68 65 -180 65q-109 0 -179 -67q-71 -68 -71 -176t67 -172q65 -68 183 -68z" />
    <glyph glyph-name="colon" unicode=":" horiz-adv-x="495" 
d="M96 672v293h303v-293h-303zM96 0v293h303v-293h-303z" />
    <glyph glyph-name="semicolon" unicode=";" horiz-adv-x="487" 
d="M96 672v293h303v-293h-303zM43 -289v21l63 493h306v-20l-158 -494h-211z" />
    <glyph glyph-name="less" unicode="&#x3c;" horiz-adv-x="1064" 
d="M991 -25l-917 502v215l917 502v-260l-649 -344v-8l649 -346v-261z" />
    <glyph glyph-name="equal" unicode="=" horiz-adv-x="1003" 
d="M10 725v233h983v-233h-983zM10 291v235h983v-235h-983z" />
    <glyph glyph-name="greater" unicode="&#x3e;" horiz-adv-x="1064" 
d="M74 -25v261l649 346v8l-649 344v260l917 -502v-215z" />
    <glyph glyph-name="question" unicode="?" 
d="M393 453v32q0 121 43 191q44 71 142 147l65 51q60 48 82 82q25 39 25 93q0 69 -45 114q-47 47 -144 47q-203 0 -203 -200h-278q0 194 125 319q123 123 356 123q214 0 344 -109q127 -112 127 -280q0 -192 -155 -311l-86 -68q-75 -58 -103 -96q-29 -44 -29 -103v-32h-266z
M377 0v293h303v-293h-303z" />
    <glyph glyph-name="at" unicode="@" horiz-adv-x="1830" 
d="M946 -205q-378 0 -616 215q-240 214 -240 613q0 364 252 598q252 231 623 231q339 0 557 -197q219 -198 219 -522q0 -265 -105 -403q-104 -137 -290 -137q-91 0 -146 38q-59 38 -74 95h-8q-89 -127 -260 -127q-157 0 -244 112q-92 115 -92 291q0 181 94 297
q94 117 252 117q71 0 133 -33q67 -36 93 -90h8l14 100h182l-18 -510q-3 -110 96 -110q84 0 131 96q45 91 45 264q0 239 -159 389q-163 150 -435 150q-295 0 -483 -191q-186 -192 -186 -471q0 -300 180 -465q180 -168 479 -168q247 0 420 72v-178q-168 -76 -422 -76zM897 385
q94 0 145 66q48 67 48 172q0 102 -52 157q-54 54 -129 54q-81 0 -131 -62q-49 -64 -49 -172q0 -106 45 -160q46 -55 123 -55z" />
    <glyph glyph-name="A" unicode="A" horiz-adv-x="1425" 
d="M891 1434l504 -1414v-20h-310l-98 301h-561l-98 -301h-295v20l502 1414h356zM508 549h397l-194 598h-9z" />
    <glyph glyph-name="B" unicode="B" horiz-adv-x="1363" 
d="M162 0v1434h653q192 0 309 -99q117 -102 117 -274q0 -205 -149 -293v-8q202 -94 202 -346q0 -195 -120 -303q-123 -111 -336 -111h-676zM440 862h330q94 0 139 45q47 44 47 121q0 158 -180 158h-336v-324zM440 250h355q108 0 159 51q54 51 54 135q0 79 -54 133
q-52 52 -159 52h-355v-371z" />
    <glyph glyph-name="C" unicode="C" horiz-adv-x="1452" 
d="M756 -18q-326 0 -500 204q-176 203 -176 529t176 532q175 205 500 205q261 0 432 -154q169 -153 184 -387h-287q-12 126 -94 205q-83 80 -235 80q-192 0 -291 -129q-98 -128 -98 -352q0 -225 98 -350q99 -129 291 -129q146 0 227 75q83 74 104 197h285
q-24 -229 -188 -377q-165 -149 -428 -149z" />
    <glyph glyph-name="D" unicode="D" horiz-adv-x="1441" 
d="M162 0v1434h489q317 0 514 -197q197 -200 197 -520q0 -307 -193 -512t-518 -205h-489zM426 250h207q213 0 328 121q114 120 114 346q0 224 -114 344q-115 121 -328 121h-207v-932z" />
    <glyph glyph-name="E" unicode="E" horiz-adv-x="1249" 
d="M162 0v1434h993v-252h-713v-318h650v-250h-650v-364h713v-250h-993z" />
    <glyph glyph-name="F" unicode="F" horiz-adv-x="1243" 
d="M162 0v1434h987v-252h-707v-355h641v-252h-641v-575h-280z" />
    <glyph glyph-name="G" unicode="G" horiz-adv-x="1466" 
d="M754 -18q-324 0 -498 204q-176 203 -176 529q0 328 176 534q176 203 498 203q265 0 430 -143q167 -144 188 -363h-287q-15 109 -98 180q-82 70 -233 70q-194 0 -289 -129q-98 -128 -98 -352q0 -225 98 -350q95 -129 289 -129q155 0 243 79q88 82 103 203h-305v250h591
v-150q0 -288 -174 -462t-458 -174z" />
    <glyph glyph-name="H" unicode="H" horiz-adv-x="1505" 
d="M1063 1434h280v-1434h-280v614h-621v-614h-280v1434h280v-568h621v568z" />
    <glyph glyph-name="I" unicode="I" horiz-adv-x="604" 
d="M162 0v1434h282v-1434h-282z" />
    <glyph glyph-name="J" unicode="J" 
d="M496 -18q-222 0 -340 124q-123 126 -123 318h274q3 -184 193 -184q97 0 143 55q45 51 45 143v996h283v-996q0 -204 -125 -329q-127 -127 -350 -127z" />
    <glyph glyph-name="K" unicode="K" horiz-adv-x="1357" 
d="M690 748l647 -728v-20h-333l-562 637v-637h-280v1434h280v-582l543 582h330v-21z" />
    <glyph glyph-name="L" unicode="L" horiz-adv-x="1134" 
d="M162 0v1434h280v-1182h662v-252h-942z" />
    <glyph glyph-name="M" unicode="M" horiz-adv-x="1802" 
d="M162 0v1434h311l426 -719h8l426 719h307v-1434h-270v989h-8l-451 -749h-20l-451 755h-8v-995h-270z" />
    <glyph glyph-name="N" unicode="N" horiz-adv-x="1521" 
d="M162 0v1434h325l586 -996h8v996h279v-1434h-328l-586 989h-8v-989h-276z" />
    <glyph glyph-name="O" unicode="O" horiz-adv-x="1515" 
d="M758 -18q-328 0 -504 206q-174 204 -174 529q0 326 174 530q175 205 504 205t504 -205q174 -204 174 -530q0 -325 -174 -529q-176 -206 -504 -206zM758 238q194 0 293 129q98 125 98 350q0 224 -98 352q-100 127 -293 127t-293 -127q-98 -128 -98 -352q0 -225 98 -350
q99 -129 293 -129z" />
    <glyph glyph-name="P" unicode="P" horiz-adv-x="1329" 
d="M162 0v1434h614q216 0 344 -131q129 -132 129 -336q0 -210 -129 -342q-133 -133 -344 -133h-334v-492h-280zM442 743h283q238 0 238 224q0 102 -62 161q-65 56 -176 56h-283v-441z" />
    <glyph glyph-name="Q" unicode="Q" horiz-adv-x="1515" 
d="M1436 717q0 -366 -213 -567l194 -279v-21h-284l-119 173q-118 -41 -256 -41q-328 0 -504 206q-174 204 -174 529q0 326 174 530q175 205 504 205t504 -205q174 -204 174 -530zM758 238q42 0 100 10l-182 262v20h282l105 -149q86 127 86 336q0 224 -98 352
q-100 127 -293 127t-293 -127q-98 -128 -98 -352q0 -225 98 -350q99 -129 293 -129z" />
    <glyph glyph-name="R" unicode="R" horiz-adv-x="1372" 
d="M981 557l356 -537v-20h-323l-330 524h-242v-524h-280v1434h629q218 0 350 -129q129 -129 129 -320q0 -153 -78 -266q-74 -111 -211 -162zM442 1182v-408h334q100 0 154 60q51 57 51 149q0 86 -51 143q-53 56 -154 56h-334z" />
    <glyph glyph-name="S" unicode="S" horiz-adv-x="1294" 
d="M645 -18q-273 0 -424 133q-153 135 -162 358h285q9 -119 88 -180q77 -62 213 -62q291 0 291 177q0 71 -47 112q-50 43 -150 64l-209 45q-203 43 -313 139q-111 94 -111 279q0 179 148 294q144 111 393 111q240 0 397 -127q153 -126 156 -328h-285q-6 90 -73 148
q-67 55 -199 55q-122 0 -184 -41q-64 -43 -64 -112q0 -57 43 -97q40 -40 142 -61l194 -41q218 -47 334 -146q117 -102 117 -288q0 -202 -144 -316q-143 -116 -436 -116z" />
    <glyph glyph-name="T" unicode="T" horiz-adv-x="1212" 
d="M465 0v1180h-422v254h1126v-254h-421v-1180h-283z" />
    <glyph glyph-name="U" unicode="U" horiz-adv-x="1462" 
d="M729 -18q-262 0 -424 149q-164 147 -164 418v885h281v-881q0 -320 307 -320q309 0 309 320v881h283v-885q0 -274 -162 -420q-163 -147 -430 -147z" />
    <glyph glyph-name="V" unicode="V" horiz-adv-x="1421" 
d="M549 0l-516 1413v21h315l359 -1092h8l354 1092h320v-21l-512 -1413h-328z" />
    <glyph glyph-name="W" unicode="W" horiz-adv-x="1918" 
d="M367 0l-334 1413v21h297l213 -1037h8l254 1037h307l258 -1037h8l213 1037h295v-21l-336 -1413h-348l-237 1004h-9l-241 -1004h-348z" />
    <glyph glyph-name="X" unicode="X" horiz-adv-x="1396" 
d="M33 0v20l461 697v8l-443 688v21h334l320 -523h8l317 523h328v-21l-432 -690v-8l436 -695v-20h-340l-320 520h-8l-319 -520h-342z" />
    <glyph glyph-name="Y" unicode="Y" horiz-adv-x="1400" 
d="M561 0v578l-528 835v21h323l344 -576h9l335 576h324v-21l-524 -833v-580h-283z" />
    <glyph glyph-name="Z" unicode="Z" horiz-adv-x="1222" 
d="M68 0v246l723 925v9h-705v254h1057v-250l-721 -924v-8h733v-252h-1087z" />
    <glyph glyph-name="bracketleft" unicode="[" horiz-adv-x="694" 
d="M74 -352v1917h485v-213h-254v-1493h256v-211h-487z" />
    <glyph glyph-name="backslash" unicode="\" horiz-adv-x="897" 
d="M608 -272l-577 1761v20h260l575 -1761v-20h-258z" />
    <glyph glyph-name="bracketright" unicode="]" horiz-adv-x="694" 
d="M133 -352v211h256v1493h-254v213h488v-1917h-490z" />
    <glyph glyph-name="asciicircum" unicode="^" horiz-adv-x="1204" 
d="M80 635v20l403 779h240l401 -779v-20h-258l-260 530h-8l-260 -530h-258z" />
    <glyph glyph-name="underscore" unicode="_" horiz-adv-x="1150" 
d="M80 -274v219h993v-219h-993z" />
    <glyph glyph-name="grave" unicode="`" horiz-adv-x="571" 
d="M301 1194l-238 293v20h304l139 -293v-20h-205z" />
    <glyph glyph-name="a" unicode="a" 
d="M438 -18q-174 0 -272 94q-100 90 -100 237q0 154 108 242q107 88 322 88h237v59q0 71 -45 113q-46 43 -139 43q-86 0 -131 -39q-47 -41 -47 -98h-258q0 159 116 260q114 102 326 102q213 0 332 -104q121 -109 121 -274v-705h-244l-21 111h-8q-99 -129 -297 -129zM504 199
q105 0 168 57q61 58 61 139v58h-217q-89 0 -133 -33q-45 -33 -45 -94q0 -59 43 -93t123 -34z" />
    <glyph glyph-name="b" unicode="b" horiz-adv-x="1204" 
d="M702 -18q-191 0 -294 133h-9l-28 -115h-246v1516h274v-566h9q103 133 294 133q203 0 320 -153t117 -398q0 -249 -117 -399q-121 -151 -320 -151zM625 223q121 0 180 86q55 85 55 223q0 141 -55 226q-60 84 -180 84q-123 0 -179 -86q-57 -83 -57 -224q0 -138 57 -221
q58 -88 179 -88z" />
    <glyph glyph-name="c" unicode="c" horiz-adv-x="1124" 
d="M586 -18q-244 0 -383 151q-137 149 -137 399q0 252 135 402q134 149 379 149q222 0 344 -116q121 -121 133 -308h-277q-9 82 -61 134q-52 49 -139 49q-234 0 -234 -310q0 -309 234 -309q89 0 141 49q52 46 61 129h277q-12 -188 -133 -303q-122 -116 -340 -116z" />
    <glyph glyph-name="d" unicode="d" horiz-adv-x="1183" 
d="M504 -18q-202 0 -320 151q-118 147 -118 399q0 246 116 398q117 153 322 153q190 0 293 -133h8v566h274v-1516h-245l-29 115h-8q-103 -133 -293 -133zM580 223q119 0 178 86q57 83 57 223q0 139 -55 224q-59 86 -180 86q-122 0 -179 -84q-57 -83 -57 -226q0 -140 57 -223
q59 -86 179 -86z" />
    <glyph glyph-name="e" unicode="e" horiz-adv-x="1136" 
d="M580 -18q-240 0 -377 155q-137 152 -137 393t133 398q131 155 376 155q233 0 365 -147q131 -146 131 -373v-106h-725q3 -116 62 -181q58 -67 172 -67q168 0 208 123h269q-21 -148 -150 -250q-126 -100 -327 -100zM348 639h443q-3 95 -58 156q-56 59 -158 59
q-109 0 -165 -59q-59 -59 -62 -156z" />
    <glyph glyph-name="f" unicode="f" horiz-adv-x="843" 
d="M233 0v834h-186v231h186v90q0 176 115 279q114 102 293 102h131v-236h-102q-162 0 -162 -145v-90h254v-231h-254v-834h-275z" />
    <glyph glyph-name="g" unicode="g" horiz-adv-x="1183" 
d="M571 -487q-213 0 -340 106q-132 105 -135 277h269q6 -65 61 -105q55 -43 145 -43q117 0 174 57q60 57 60 146v164h-8q-103 -133 -293 -133q-205 0 -322 153q-116 152 -116 395q0 252 118 402q118 151 320 151q190 0 293 -133h8l29 115h245v-1118q0 -194 -141 -314
t-367 -120zM580 223q121 0 180 86q55 82 55 221q0 140 -57 226q-59 86 -178 86q-120 0 -179 -86q-57 -86 -57 -226q0 -141 57 -221q56 -86 179 -86z" />
    <glyph glyph-name="h" unicode="h" horiz-adv-x="1204" 
d="M125 0v1516h274v-572h9q106 139 301 139q176 0 284 -102q105 -105 105 -283v-698h-275v621q0 213 -198 213q-96 0 -162 -66q-64 -67 -64 -180v-588h-274z" />
    <glyph glyph-name="i" unicode="i" horiz-adv-x="505" 
d="M115 1217v286h295v-286h-295zM125 0v1065h274v-1065h-274z" />
    <glyph glyph-name="j" unicode="j" horiz-adv-x="520" 
d="M129 1217v286h295v-286h-295zM-74 -487v254h78q135 0 135 149v1149h275v-1206q0 -167 -99 -256q-101 -90 -262 -90h-127z" />
    <glyph glyph-name="k" unicode="k" horiz-adv-x="1122" 
d="M645 571l451 -551v-20h-330l-381 481v-481h-260v1516h260v-865l371 414h319v-21z" />
    <glyph glyph-name="l" unicode="l" horiz-adv-x="505" 
d="M125 0v1516h274v-1516h-274z" />
    <glyph glyph-name="m" unicode="m" horiz-adv-x="1841" 
d="M1350 1083q176 0 280 -104q105 -105 105 -281v-698h-275v621q0 213 -184 213q-96 0 -150 -66q-53 -65 -53 -178v-590h-272v621q0 213 -187 213q-95 0 -155 -66t-60 -178v-590h-274v1065h246l20 -121h8q106 139 299 139q225 0 320 -157h6q109 157 326 157z" />
    <glyph glyph-name="n" unicode="n" horiz-adv-x="1196" 
d="M125 0v1065h246l20 -121h8q106 139 303 139q176 0 283 -104q105 -105 105 -281v-698h-275v621q0 213 -197 213q-97 0 -157 -66q-62 -65 -62 -178v-590h-274z" />
    <glyph glyph-name="o" unicode="o" horiz-adv-x="1165" 
d="M584 -18q-250 0 -383 151q-135 150 -135 397t135 400t383 153q246 0 381 -153t135 -400q0 -244 -133 -395q-135 -153 -383 -153zM584 223q237 0 237 307q0 312 -237 312q-238 0 -238 -312q0 -307 238 -307z" />
    <glyph glyph-name="p" unicode="p" horiz-adv-x="1204" 
d="M125 -469v1534h246l28 -115h9q103 133 294 133q197 0 318 -151q119 -152 119 -402q0 -242 -117 -395t-320 -153q-191 0 -294 133h-9v-584h-274zM625 223q121 0 180 86q55 82 55 221q0 141 -55 226q-59 86 -180 86q-120 0 -179 -86q-57 -86 -57 -226q0 -141 57 -221
q56 -86 179 -86z" />
    <glyph glyph-name="q" unicode="q" horiz-adv-x="1183" 
d="M805 -469v584h-8q-103 -133 -293 -133q-205 0 -322 153q-116 152 -116 395q0 252 118 402q118 151 320 151q190 0 293 -133h8l29 115h245v-1534h-274zM580 223q121 0 180 86q55 82 55 221q0 140 -57 226q-59 86 -178 86q-120 0 -179 -86q-57 -86 -57 -226q0 -141 57 -221
q56 -86 179 -86z" />
    <glyph glyph-name="r" unicode="r" horiz-adv-x="796" 
d="M125 0v1065h231l21 -162h8q82 178 277 178h77v-254h-96q-123 0 -190 -79q-68 -80 -68 -226v-522h-260z" />
    <glyph glyph-name="s" unicode="s" horiz-adv-x="1046" 
d="M528 -18q-225 0 -342 102t-120 274h274q0 -64 49 -104q50 -41 139 -41q81 0 131 29q46 27 46 69q0 79 -123 103l-172 32q-312 59 -312 324q0 136 115 225q113 88 309 88q197 0 316 -98q118 -100 118 -256h-270q0 58 -43 98q-46 37 -125 37q-71 0 -110 -26
q-41 -27 -41 -70q0 -75 108 -96l195 -35q145 -27 229 -102q82 -73 82 -222q0 -154 -127 -243q-125 -88 -326 -88z" />
    <glyph glyph-name="t" unicode="t" horiz-adv-x="854" 
d="M561 0q-170 0 -252 88q-82 85 -82 236v507h-174v234h185v281h264v-281h256v-234h-256v-448q0 -76 33 -109q34 -34 104 -34h123v-240h-201z" />
    <glyph glyph-name="u" unicode="u" horiz-adv-x="1187" 
d="M508 -18q-177 0 -281 104q-106 103 -106 281v698h274v-621q0 -213 197 -213q97 0 160 66q59 65 59 178v590h274v-1065h-245l-21 121h-8q-106 -139 -303 -139z" />
    <glyph glyph-name="v" unicode="v" horiz-adv-x="1107" 
d="M387 0l-360 1044v21h282l246 -795h8l240 795h278v-21l-356 -1044h-338z" />
    <glyph glyph-name="w" unicode="w" horiz-adv-x="1656" 
d="M299 0l-272 1044v21h272l174 -758h8l172 758h353l172 -758h8l176 758h268v-21l-270 -1044h-348l-176 756h-9l-180 -756h-348z" />
    <glyph glyph-name="x" unicode="x" horiz-adv-x="1107" 
d="M29 0v20l338 515l-326 509v21h295l215 -358h8l215 358h295v-21l-328 -507l338 -517v-20h-299l-221 367h-8l-223 -367h-299z" />
    <glyph glyph-name="y" unicode="y" horiz-adv-x="1138" 
d="M27 1065h282l246 -778h8l254 778h295v-21l-551 -1513h-295v20l162 451l-39 2l-362 1040v21z" />
    <glyph glyph-name="z" unicode="z" horiz-adv-x="1028" 
d="M84 0v229l522 594v8h-520v234h854v-231l-520 -592v-9h524v-233h-860z" />
    <glyph glyph-name="braceleft" unicode="{" horiz-adv-x="880" 
d="M326 610v-8q170 -24 170 -215v-354q0 -92 39 -131q41 -41 122 -41h91v-213h-150q-156 0 -244 88q-90 90 -90 239v336q0 96 -47 140q-48 42 -143 45v221q96 3 143 47q47 41 47 137v336q0 150 90 240q88 88 244 88h150v-213h-91q-81 0 -122 -41q-39 -39 -39 -131v-355
q0 -191 -170 -215z" />
    <glyph glyph-name="bar" unicode="|" horiz-adv-x="561" 
d="M162 -283v1839h237v-1839h-237z" />
    <glyph glyph-name="braceright" unicode="}" horiz-adv-x="880" 
d="M616 901q0 -95 48 -137q47 -44 143 -47v-221q-95 -3 -143 -45q-48 -45 -48 -140v-336q0 -149 -90 -239q-88 -88 -243 -88h-150v213h90q82 0 123 41q39 39 39 131v354q0 191 170 215v8q-170 24 -170 215v355q0 92 -39 131q-41 41 -123 41h-90v213h150q155 0 243 -88
q90 -90 90 -240v-336z" />
    <glyph glyph-name="asciitilde" unicode="~" horiz-adv-x="1114" 
d="M760 416q-98 0 -199 55l-94 51q-60 31 -111 31q-114 0 -161 -117l-146 99q37 103 115 172q77 65 188 65q102 0 197 -53l94 -51q59 -33 117 -33q110 0 162 117l145 -99q-37 -105 -115 -170q-76 -67 -192 -67z" />
    <glyph glyph-name="exclamdown" unicode="&#xa1;" horiz-adv-x="528" 
d="M115 772v293h303v-293h-303zM119 -369v197l43 782h198l54 -782v-197h-295z" />
    <glyph glyph-name="cent" unicode="&#xa2;" horiz-adv-x="1124" 
d="M1059 586q-9 -167 -111 -281t-282 -135v-170h-183v174q-197 30 -307 176q-110 143 -110 367t108 368q110 147 309 177v172h183v-172q177 -20 280 -136q102 -114 111 -282h-277q-12 125 -114 166v-588q104 40 116 164h277zM346 717q0 -236 137 -291v582
q-137 -58 -137 -291z" />
    <glyph glyph-name="sterling" unicode="&#xa3;" horiz-adv-x="1245" 
d="M70 0v240q68 0 108 43q39 42 39 120v177h-149v237h149v205q0 184 127 311q125 125 344 125q216 0 342 -129q125 -128 125 -313h-262q0 90 -51 153q-53 62 -158 62q-98 0 -152 -57q-55 -58 -55 -152v-205h391v-237h-391v-185q0 -116 -67 -153v-9h782v-233h-1122z" />
    <glyph glyph-name="currency" unicode="&#xa4;" horiz-adv-x="1163" 
d="M211 -31l-152 152l142 147q-66 111 -66 236q0 132 68 241l-144 150l154 149l145 -149q108 63 230 63q120 0 223 -59l141 145l154 -149l-139 -143q75 -112 75 -248q0 -134 -73 -244l137 -139l-154 -152l-137 142q-115 -62 -227 -62q-122 0 -234 68zM588 272q94 0 160 66
q63 63 63 166t-63 166q-65 65 -160 65q-99 0 -164 -65q-66 -66 -66 -166t66 -166t164 -66z" />
    <glyph glyph-name="yen" unicode="&#xa5;" horiz-adv-x="1400" 
d="M1368 1434v-21l-367 -590h195v-211h-326l-20 -32v-121h346v-209h-346v-250h-283v250h-362v209h362v119l-22 34h-340v211h205l-377 590v21h344l330 -576h8l329 576h324z" />
    <glyph glyph-name="brokenbar" unicode="&#xa6;" horiz-adv-x="561" 
d="M162 823v733h237v-733h-237zM162 -283v734h237v-734h-237z" />
    <glyph glyph-name="section" unicode="&#xa7;" horiz-adv-x="1245" 
d="M608 -502q-189 0 -301 109q-109 106 -112 280h229q3 -80 51 -125q47 -47 133 -47q80 0 125 39t45 101q0 85 -94 155l-358 262q-102 74 -150 150q-45 71 -45 176q0 180 184 285q-84 96 -84 223q0 149 111 248q110 98 295 98q189 0 301 -109q111 -108 111 -280h-228
q-3 81 -49 127q-48 45 -135 45q-80 0 -125 -39t-45 -100q0 -86 94 -156l346 -252q107 -73 160 -156q47 -77 47 -182q0 -174 -184 -282q84 -96 84 -224q0 -152 -109 -247q-111 -99 -297 -99zM774 209q105 43 105 135q0 96 -91 162l-317 235q-106 -40 -106 -139q0 -91 86 -153
z" />
    <glyph glyph-name="dieresis" unicode="&#xa8;" horiz-adv-x="882" 
d="M119 1239v250h250v-250h-250zM516 1239v250h248v-250h-248z" />
    <glyph glyph-name="copyright" unicode="&#xa9;" horiz-adv-x="1679" 
d="M840 1452q315 0 516 -207q197 -203 200 -528q-3 -326 -200 -529q-200 -206 -516 -206t-516 206q-198 204 -201 529q3 324 201 528q201 207 516 207zM840 156q248 0 393 151q140 149 143 410q-3 260 -143 409q-146 152 -393 152q-248 0 -391 -152q-143 -149 -146 -409
q3 -261 146 -410q142 -151 391 -151zM844 459q157 0 172 145h172q-12 -131 -101 -217t-241 -86q-182 0 -277 111q-96 110 -96 299q0 188 96 301q94 110 275 110q158 0 246 -88t94 -219h-172q-12 148 -168 148q-197 0 -197 -252t197 -252z" />
    <glyph glyph-name="ordfeminine" unicode="&#xaa;" horiz-adv-x="751" 
d="M311 606q-114 0 -178 64q-67 61 -67 155q0 99 71 158t213 59q79 0 152 -20v57q0 99 -119 99q-53 0 -84 -25t-31 -61h-172q0 101 78 170q76 67 215 67t217 -69q80 -71 80 -179v-463h-164l-12 72h-6q-66 -84 -193 -84zM354 752q70 0 109 36q39 33 39 89v14q-58 22 -135 22
q-119 0 -119 -79q0 -82 106 -82z" />
    <glyph glyph-name="guillemotleft" unicode="&#xab;" horiz-adv-x="1245" 
d="M393 135l-340 434v21l340 434h258v-20l-286 -424l286 -424v-21h-258zM907 135l-340 434v21l340 434h258v-20l-286 -424l286 -424v-21h-258z" />
    <glyph glyph-name="registered" unicode="&#xae;" horiz-adv-x="1030" 
d="M514 567q-204 0 -334 133q-131 131 -131 332t131 332q130 133 334 133q203 0 336 -133q129 -132 129 -332t-129 -332q-133 -133 -336 -133zM514 702q149 0 238 89q86 86 86 241t-86 244q-89 86 -238 86q-147 0 -233 -86q-88 -88 -88 -244t88 -241q86 -89 233 -89z
M344 813v426h209q66 0 113 -41q45 -42 45 -104q0 -95 -72 -136l88 -133v-12h-123l-80 129h-65v-129h-115zM459 1042h76q55 0 55 50q0 45 -55 45h-76v-95z" />
    <glyph glyph-name="macron" unicode="&#xaf;" horiz-adv-x="716" 
d="M63 1249v209h590v-209h-590z" />
    <glyph glyph-name="degree" unicode="&#xb0;" horiz-adv-x="874" 
d="M438 750q-156 0 -258 102q-104 101 -104 254t104 254q102 102 258 102t258 -102q103 -103 103 -254t-103 -254q-102 -102 -258 -102zM438 932q76 0 121 51q45 48 45 123q0 76 -43 125q-46 49 -123 49q-78 0 -121 -49q-45 -48 -45 -125t45 -125q43 -49 121 -49z" />
    <glyph glyph-name="plusminus" unicode="&#xb1;" horiz-adv-x="1003" 
d="M381 401v297h-371v236h371v299h252v-299h360v-236h-360v-297h-252zM10 49v236h983v-236h-983z" />
    <glyph glyph-name="uni00B2" unicode="&#xb2;" horiz-adv-x="837" 
d="M82 510v164l319 289q86 77 111 114q29 43 29 92t-33 82q-36 31 -94 31q-61 0 -99 -35q-36 -36 -36 -98h-199q0 139 92 225q93 84 242 84q148 0 237 -80q90 -84 90 -202q0 -80 -36 -142q-37 -64 -132 -147l-217 -191v-6h400v-180h-674z" />
    <glyph glyph-name="uni00B3" unicode="&#xb3;" horiz-adv-x="878" 
d="M444 489q-163 0 -264 82q-100 78 -100 228h196q0 -51 41 -92t125 -41q77 0 115 32q37 34 37 86q0 117 -166 117h-88v176h86q141 0 141 105q0 43 -35 73q-40 29 -98 29q-140 0 -143 -135h-195q3 145 94 227t248 82q141 0 238 -72q94 -73 94 -190q0 -142 -121 -192v-9
q65 -21 109 -77q41 -59 41 -134q0 -129 -90 -213q-91 -82 -265 -82z" />
    <glyph glyph-name="acute" unicode="&#xb4;" horiz-adv-x="571" 
d="M63 1194v20l142 293h301v-20l-238 -293h-205z" />
    <glyph glyph-name="paragraph" unicode="&#xb6;" horiz-adv-x="1255" 
d="M451 -213v936q-158 0 -273 115q-112 112 -112 272t112 272q113 113 273 113h733v-201h-127v-1507h-228v1507h-151v-1507h-227z" />
    <glyph glyph-name="periodcentered" unicode="&#xb7;" horiz-adv-x="495" 
d="M96 465v293h303v-293h-303z" />
    <glyph glyph-name="cedilla" unicode="&#xb8;" horiz-adv-x="673" 
d="M326 -461q-114 0 -187 55q-76 52 -76 148h168q0 -30 27 -45q25 -19 66 -19q36 0 67 17q29 16 29 45q0 27 -23 47q-26 16 -67 16h-66l-51 64l82 162h188l-73 -109q87 -3 143 -53q55 -52 55 -129q0 -86 -73 -141q-76 -58 -209 -58z" />
    <glyph glyph-name="uni00B9" unicode="&#xb9;" horiz-adv-x="600" 
d="M322 508v715h-9l-217 -164h-16v196l239 179h201v-926h-198z" />
    <glyph glyph-name="ordmasculine" unicode="&#xba;" horiz-adv-x="815" 
d="M406 606q-162 0 -250 101q-90 104 -90 262q0 156 90 260q87 100 250 100q164 0 251 -100q91 -105 91 -260q0 -159 -89 -262q-88 -101 -253 -101zM406 770q151 0 151 199q0 196 -151 196q-150 0 -150 -196q0 -199 150 -199z" />
    <glyph glyph-name="guillemotright" unicode="&#xbb;" horiz-adv-x="1245" 
d="M336 135h-258v21l287 424l-287 424v20h258l340 -434v-21zM852 135h-258v21l287 424l-287 424v20h258l340 -434v-21z" />
    <glyph glyph-name="onequarter" unicode="&#xbc;" horiz-adv-x="1857" 
d="M322 508v715h-9l-217 -164h-16v196l239 179h201v-926h-198zM346 0v20l889 1414h217v-21l-885 -1413h-221zM1468 0v172h-421v195l356 559h264v-576h111v-178h-111v-172h-199zM1241 350h227v350h-8l-219 -342v-8z" />
    <glyph glyph-name="onehalf" unicode="&#xbd;" horiz-adv-x="1937" 
d="M322 508v715h-9l-217 -164h-16v196l239 179h201v-926h-198zM346 0v20l889 1414h217v-21l-885 -1413h-221zM1182 0v162l319 289q85 75 109 114q28 42 28 94t-32 80q-36 31 -93 31q-60 0 -98 -35q-37 -34 -37 -96h-198q0 139 92 225q93 84 241 84q149 0 238 -80
q90 -84 90 -202q0 -78 -37 -142q-39 -66 -131 -147l-217 -193v-6h399v-178h-673z" />
    <glyph glyph-name="threequarters" unicode="&#xbe;" horiz-adv-x="2041" 
d="M444 489q-163 0 -264 82q-100 78 -100 228h196q0 -51 41 -92t125 -41q77 0 115 32q37 34 37 86q0 117 -166 117h-88v176h86q141 0 141 105q0 43 -35 73q-40 29 -98 29q-140 0 -143 -135h-195q3 145 94 227t248 82q141 0 238 -72q94 -73 94 -190q0 -142 -121 -192v-9
q65 -21 109 -77q41 -59 41 -134q0 -129 -90 -213q-91 -82 -265 -82zM530 0v20l889 1414h217v-21l-884 -1413h-222zM1653 0v172h-422v195l356 559h264v-576h111v-178h-111v-172h-198zM1425 350h228v350h-8l-220 -342v-8z" />
    <glyph glyph-name="questiondown" unicode="&#xbf;" 
d="M432 772v293h303v-293h-303zM551 -389q-217 0 -342 110q-129 111 -129 281q0 191 156 311l86 68q78 59 104 96q27 37 27 101v32h266v-32q0 -121 -41 -189q-46 -74 -143 -147l-66 -52q-61 -51 -80 -81q-27 -37 -27 -93q0 -68 48 -116q47 -47 141 -47q203 0 203 202h278
q0 -196 -123 -319q-122 -125 -358 -125z" />
    <glyph glyph-name="Agrave" unicode="&#xc0;" horiz-adv-x="1425" 
d="M864 1563h-205l-237 292v21h303l139 -293v-20zM891 1434l504 -1414v-20h-310l-98 301h-561l-98 -301h-295v20l502 1414h356zM508 549h397l-194 598h-9z" />
    <glyph glyph-name="Aacute" unicode="&#xc1;" horiz-adv-x="1425" 
d="M1024 1855l-238 -292h-204v20l141 293h301v-21zM891 1434l504 -1414v-20h-310l-98 301h-561l-98 -301h-295v20l502 1414h356zM508 549h397l-194 598h-9z" />
    <glyph glyph-name="Acircumflex" unicode="&#xc2;" horiz-adv-x="1425" 
d="M713 1692l-123 -125h-221v20l196 285h303l199 -285v-20h-223l-123 125h-8zM891 1434l504 -1414v-20h-310l-98 301h-561l-98 -301h-295v20l502 1414h356zM508 549h397l-194 598h-9z" />
    <glyph glyph-name="Atilde" unicode="&#xc3;" horiz-adv-x="1425" 
d="M571 1655q-61 0 -61 -78h-170v31q0 117 59 182q57 63 156 63q59 0 143 -41l31 -16q53 -29 76 -29q57 0 57 82h168v-30q0 -246 -213 -246q-74 0 -139 39l-31 16q-49 27 -76 27zM891 1434l504 -1414v-20h-310l-98 301h-561l-98 -301h-295v20l502 1414h356zM508 549h397
l-194 598h-9z" />
    <glyph glyph-name="Adieresis" unicode="&#xc4;" horiz-adv-x="1425" 
d="M643 1858v-250h-250v250h250zM1038 1858v-250h-247v250h247zM891 1434l504 -1414v-20h-310l-98 301h-561l-98 -301h-295v20l502 1414h356zM508 549h397l-194 598h-9z" />
    <glyph glyph-name="Aring" unicode="&#xc5;" horiz-adv-x="1425" 
d="M711 1534q-102 0 -170 65t-68 164q0 101 68 166q69 66 170 66q105 0 172 -64q65 -65 65 -168q0 -99 -65 -164q-68 -65 -172 -65zM709 1855q-43 0 -66 -26q-25 -28 -25 -66t25 -63q24 -27 66 -27t69 27q25 25 25 63t-25 66q-26 26 -69 26zM891 1434l504 -1414v-20h-310
l-98 301h-561l-98 -301h-295v20l502 1414h356zM508 549h397l-194 598h-9z" />
    <glyph glyph-name="AE" unicode="&#xc6;" horiz-adv-x="1871" 
d="M33 0v20l502 1414h1245v-252h-801l115 -318h622v-250h-534l131 -364h467v-250h-695l-98 301h-561l-98 -301h-295zM506 549h401l-196 598h-9z" />
    <glyph glyph-name="Ccedilla" unicode="&#xc7;" horiz-adv-x="1452" 
d="M756 236q146 0 227 75q83 74 104 197h285q-21 -211 -168 -358q-148 -145 -381 -166l-43 -64q88 -3 144 -53q55 -52 55 -129q0 -85 -74 -141q-76 -58 -209 -58q-113 0 -186 55q-76 52 -76 148h168q0 -30 27 -45q25 -19 65 -19q37 0 68 17q29 16 29 45q0 27 -23 47
q-26 16 -68 16h-65l-51 64l61 121q-276 38 -418 235q-147 197 -147 492q0 326 176 532q175 205 500 205q261 0 432 -154q169 -153 184 -387h-287q-12 126 -94 205q-83 80 -235 80q-192 0 -291 -129q-98 -128 -98 -352q0 -225 98 -350q99 -129 291 -129z" />
    <glyph glyph-name="Egrave" unicode="&#xc8;" horiz-adv-x="1249" 
d="M631 1563l-238 292v21h303l140 -293v-20h-205zM162 0v1434h993v-252h-713v-318h650v-250h-650v-364h713v-250h-993z" />
    <glyph glyph-name="Eacute" unicode="&#xc9;" horiz-adv-x="1249" 
d="M553 1563v20l141 293h301v-21l-237 -292h-205zM162 0v1434h993v-252h-713v-318h650v-250h-650v-364h713v-250h-993z" />
    <glyph glyph-name="Ecircumflex" unicode="&#xca;" horiz-adv-x="1249" 
d="M340 1567v20l197 285h303l198 -285v-20h-223l-123 125h-8l-123 -125h-221zM162 0v1434h993v-252h-713v-318h650v-250h-650v-364h713v-250h-993z" />
    <glyph glyph-name="Edieresis" unicode="&#xcb;" horiz-adv-x="1249" 
d="M365 1608v250h249v-250h-249zM762 1608v250h248v-250h-248zM162 0v1434h993v-252h-713v-318h650v-250h-650v-364h713v-250h-993z" />
    <glyph glyph-name="Igrave" unicode="&#xcc;" horiz-adv-x="604" 
d="M254 1563l-238 292v21h303l140 -293v-20h-205zM162 0v1434h282v-1434h-282z" />
    <glyph glyph-name="Iacute" unicode="&#xcd;" horiz-adv-x="604" 
d="M176 1563v20l141 293h301v-21l-237 -292h-205zM162 0v1434h282v-1434h-282z" />
    <glyph glyph-name="Icircumflex" unicode="&#xce;" horiz-adv-x="604" 
d="M-37 1567v20l197 285h303l199 -285v-20h-224l-123 125h-8l-123 -125h-221zM162 0v1434h282v-1434h-282z" />
    <glyph glyph-name="Idieresis" unicode="&#xcf;" horiz-adv-x="604" 
d="M-12 1608v250h250v-250h-250zM385 1608v250h248v-250h-248zM162 0v1434h282v-1434h-282z" />
    <glyph glyph-name="Eth" unicode="&#xd0;" horiz-adv-x="1531" 
d="M741 1434q317 0 514 -197q197 -200 197 -520q0 -308 -192 -512q-193 -205 -519 -205h-489v623h-148v239h148v572h489zM723 250q213 0 328 121q114 120 114 346q0 224 -114 344q-115 121 -328 121h-207v-320h324v-239h-324v-373h207z" />
    <glyph glyph-name="Ntilde" unicode="&#xd1;" horiz-adv-x="1521" 
d="M913 1573q-74 0 -139 39l-31 16q-49 27 -75 27q-62 0 -62 -78h-170v31q0 116 60 182q57 63 155 63q60 0 144 -41l30 -16q53 -29 76 -29q57 0 57 82h168v-30q0 -246 -213 -246zM162 0v1434h325l586 -996h8v996h279v-1434h-328l-586 989h-8v-989h-276z" />
    <glyph glyph-name="Ograve" unicode="&#xd2;" horiz-adv-x="1515" 
d="M709 1563l-238 292v21h303l139 -293v-20h-204zM758 -18q-328 0 -504 206q-174 204 -174 529q0 326 174 530q175 205 504 205t504 -205q174 -204 174 -530q0 -325 -174 -529q-176 -206 -504 -206zM758 238q194 0 293 129q98 125 98 350q0 224 -98 352q-100 127 -293 127
t-293 -127q-98 -128 -98 -352q0 -225 98 -350q99 -129 293 -129z" />
    <glyph glyph-name="Oacute" unicode="&#xd3;" horiz-adv-x="1515" 
d="M631 1563v20l141 293h301v-21l-237 -292h-205zM758 -18q-328 0 -504 206q-174 204 -174 529q0 326 174 530q175 205 504 205t504 -205q174 -204 174 -530q0 -325 -174 -529q-176 -206 -504 -206zM758 238q194 0 293 129q98 125 98 350q0 224 -98 352q-100 127 -293 127
t-293 -127q-98 -128 -98 -352q0 -225 98 -350q99 -129 293 -129z" />
    <glyph glyph-name="Ocircumflex" unicode="&#xd4;" horiz-adv-x="1515" 
d="M418 1567v20l196 285h304l198 -285v-20h-223l-123 125h-8l-123 -125h-221zM758 -18q-328 0 -504 206q-174 204 -174 529q0 326 174 530q175 205 504 205t504 -205q174 -204 174 -530q0 -325 -174 -529q-176 -206 -504 -206zM758 238q194 0 293 129q98 125 98 350
q0 224 -98 352q-100 127 -293 127t-293 -127q-98 -128 -98 -352q0 -225 98 -350q99 -129 293 -129z" />
    <glyph glyph-name="Otilde" unicode="&#xd5;" horiz-adv-x="1515" 
d="M866 1573q-74 0 -139 39l-31 16q-50 27 -75 27q-62 0 -62 -78h-170v31q0 116 60 182q57 63 155 63q60 0 144 -41l30 -16q53 -29 76 -29q57 0 57 82h168v-30q0 -246 -213 -246zM758 -18q-328 0 -504 206q-174 204 -174 529q0 326 174 530q175 205 504 205t504 -205
q174 -204 174 -530q0 -325 -174 -529q-176 -206 -504 -206zM758 238q194 0 293 129q98 125 98 350q0 224 -98 352q-100 127 -293 127t-293 -127q-98 -128 -98 -352q0 -225 98 -350q99 -129 293 -129z" />
    <glyph glyph-name="Odieresis" unicode="&#xd6;" horiz-adv-x="1515" 
d="M442 1608v250h250v-250h-250zM840 1608v250h247v-250h-247zM758 -18q-328 0 -504 206q-174 204 -174 529q0 326 174 530q175 205 504 205t504 -205q174 -204 174 -530q0 -325 -174 -529q-176 -206 -504 -206zM758 238q194 0 293 129q98 125 98 350q0 224 -98 352
q-100 127 -293 127t-293 -127q-98 -128 -98 -352q0 -225 98 -350q99 -129 293 -129z" />
    <glyph glyph-name="multiply" unicode="&#xd7;" horiz-adv-x="923" 
d="M180 201l-168 168l287 282l-287 283l168 168l287 -283l285 283l168 -168l-285 -283l285 -282l-168 -168l-285 284z" />
    <glyph glyph-name="Oslash" unicode="&#xd8;" horiz-adv-x="1515" 
d="M1458 1511v-20l-186 -258q164 -200 164 -516q0 -325 -174 -529q-176 -206 -504 -206q-200 0 -338 75l-109 -149h-254v20l193 267q-170 194 -170 522q0 326 174 530q175 205 504 205q189 0 342 -78l100 137h258zM367 717q0 -170 55 -283l522 721q-84 41 -186 41
q-193 0 -293 -127q-98 -128 -98 -352zM1149 717q0 169 -51 274l-520 -717q73 -36 180 -36q194 0 293 129q98 125 98 350z" />
    <glyph glyph-name="Ugrave" unicode="&#xd9;" horiz-adv-x="1462" 
d="M678 1563l-238 292v21h303l140 -293v-20h-205zM729 -18q-262 0 -424 149q-164 147 -164 418v885h281v-881q0 -320 307 -320q309 0 309 320v881h283v-885q0 -274 -162 -420q-163 -147 -430 -147z" />
    <glyph glyph-name="Uacute" unicode="&#xda;" horiz-adv-x="1462" 
d="M600 1563v20l141 293h301v-21l-237 -292h-205zM729 -18q-262 0 -424 149q-164 147 -164 418v885h281v-881q0 -320 307 -320q309 0 309 320v881h283v-885q0 -274 -162 -420q-163 -147 -430 -147z" />
    <glyph glyph-name="Ucircumflex" unicode="&#xdb;" horiz-adv-x="1462" 
d="M387 1567v20l197 285h303l198 -285v-20h-223l-123 125h-8l-123 -125h-221zM729 -18q-262 0 -424 149q-164 147 -164 418v885h281v-881q0 -320 307 -320q309 0 309 320v881h283v-885q0 -274 -162 -420q-163 -147 -430 -147z" />
    <glyph glyph-name="Udieresis" unicode="&#xdc;" horiz-adv-x="1462" 
d="M412 1608v250h250v-250h-250zM809 1608v250h248v-250h-248zM729 -18q-262 0 -424 149q-164 147 -164 418v885h281v-881q0 -320 307 -320q309 0 309 320v881h283v-885q0 -274 -162 -420q-163 -147 -430 -147z" />
    <glyph glyph-name="Yacute" unicode="&#xdd;" horiz-adv-x="1400" 
d="M586 1563v20l141 293h301v-21l-237 -292h-205zM561 0v578l-528 835v21h323l344 -576h9l335 576h324v-21l-524 -833v-580h-283z" />
    <glyph glyph-name="Thorn" unicode="&#xde;" horiz-adv-x="1300" 
d="M162 0v1434h282v-191h332q216 0 344 -131q129 -132 129 -336q0 -210 -129 -342q-133 -133 -344 -133h-332v-301h-282zM444 553h281q238 0 238 223q0 103 -62 162q-64 55 -176 55h-281v-440z" />
    <glyph glyph-name="germandbls" unicode="&#xdf;" horiz-adv-x="1374" 
d="M905 -18q-197 0 -311 102t-117 276h260q0 -151 168 -151q65 0 105 27q37 24 37 69q0 44 -33 70t-107 51l-131 41q-134 44 -198 111q-68 65 -68 176q0 103 57 166q57 67 123 90q63 20 123 59q55 34 55 86q0 69 -59 107q-56 36 -168 36q-116 0 -178 -59q-64 -61 -64 -176
v-1063h-274v1067q0 211 141 340t375 129q233 0 360 -106q127 -109 127 -273q0 -91 -36 -153q-41 -65 -93 -95q-50 -29 -106 -51q-53 -21 -90 -45q-39 -23 -39 -59q0 -38 27 -56q25 -19 81 -36l166 -56q143 -47 207 -117q64 -73 64 -186q0 -144 -111 -233q-113 -88 -293 -88z
" />
    <glyph glyph-name="agrave" unicode="&#xe0;" 
d="M514 1194l-238 293v20h304l139 -293v-20h-205zM438 -18q-174 0 -272 94q-100 90 -100 237q0 154 108 242q107 88 322 88h237v59q0 71 -45 113q-46 43 -139 43q-86 0 -131 -39q-47 -41 -47 -98h-258q0 159 116 260q114 102 326 102q213 0 332 -104q121 -109 121 -274v-705
h-244l-21 111h-8q-99 -129 -297 -129zM504 199q105 0 168 57q61 58 61 139v58h-217q-89 0 -133 -33q-45 -33 -45 -94q0 -59 43 -93t123 -34z" />
    <glyph glyph-name="aacute" unicode="&#xe1;" 
d="M436 1194v20l142 293h301v-20l-238 -293h-205zM438 -18q-174 0 -272 94q-100 90 -100 237q0 154 108 242q107 88 322 88h237v59q0 71 -45 113q-46 43 -139 43q-86 0 -131 -39q-47 -41 -47 -98h-258q0 159 116 260q114 102 326 102q213 0 332 -104q121 -109 121 -274v-705
h-244l-21 111h-8q-99 -129 -297 -129zM504 199q105 0 168 57q61 58 61 139v58h-217q-89 0 -133 -33q-45 -33 -45 -94q0 -59 43 -93t123 -34z" />
    <glyph glyph-name="acircumflex" unicode="&#xe2;" 
d="M223 1198v21l197 284h303l199 -284v-21h-224l-123 125h-8l-123 -125h-221zM438 -18q-174 0 -272 94q-100 90 -100 237q0 154 108 242q107 88 322 88h237v59q0 71 -45 113q-46 43 -139 43q-86 0 -131 -39q-47 -41 -47 -98h-258q0 159 116 260q114 102 326 102
q213 0 332 -104q121 -109 121 -274v-705h-244l-21 111h-8q-99 -129 -297 -129zM504 199q105 0 168 57q61 58 61 139v58h-217q-89 0 -133 -33q-45 -33 -45 -94q0 -59 43 -93t123 -34z" />
    <glyph glyph-name="atilde" unicode="&#xe3;" 
d="M672 1204q-75 0 -140 39l-30 17q-48 26 -76 26q-61 0 -61 -78h-170v31q0 117 59 182q58 64 156 64q59 0 143 -41l31 -17q54 -28 75 -28q58 0 58 82h168v-31q0 -246 -213 -246zM438 -18q-174 0 -272 94q-100 90 -100 237q0 154 108 242q107 88 322 88h237v59q0 71 -45 113
q-46 43 -139 43q-86 0 -131 -39q-47 -41 -47 -98h-258q0 159 116 260q114 102 326 102q213 0 332 -104q121 -109 121 -274v-705h-244l-21 111h-8q-99 -129 -297 -129zM504 199q105 0 168 57q61 58 61 139v58h-217q-89 0 -133 -33q-45 -33 -45 -94q0 -59 43 -93t123 -34z" />
    <glyph glyph-name="adieresis" unicode="&#xe4;" 
d="M248 1239v250h250v-250h-250zM645 1239v250h248v-250h-248zM438 -18q-174 0 -272 94q-100 90 -100 237q0 154 108 242q107 88 322 88h237v59q0 71 -45 113q-46 43 -139 43q-86 0 -131 -39q-47 -41 -47 -98h-258q0 159 116 260q114 102 326 102q213 0 332 -104
q121 -109 121 -274v-705h-244l-21 111h-8q-99 -129 -297 -129zM504 199q105 0 168 57q61 58 61 139v58h-217q-89 0 -133 -33q-45 -33 -45 -94q0 -59 43 -93t123 -34z" />
    <glyph glyph-name="aring" unicode="&#xe5;" 
d="M565 1165q-101 0 -170 66q-67 64 -67 164q0 102 67 166q68 65 170 65q106 0 172 -63q66 -66 66 -168q0 -98 -66 -164q-69 -66 -172 -66zM563 1305q44 0 70 26q24 24 24 64q0 38 -24 65q-27 27 -70 27q-41 0 -65 -27q-25 -28 -25 -65q0 -39 25 -64q23 -26 65 -26zM438 -18
q-174 0 -272 94q-100 90 -100 237q0 154 108 242q107 88 322 88h237v59q0 71 -45 113q-46 43 -139 43q-86 0 -131 -39q-47 -41 -47 -98h-258q0 159 116 260q114 102 326 102q213 0 332 -104q121 -109 121 -274v-705h-244l-21 111h-8q-99 -129 -297 -129zM504 199
q105 0 168 57q61 58 61 139v58h-217q-89 0 -133 -33q-45 -33 -45 -94q0 -59 43 -93t123 -34z" />
    <glyph glyph-name="ae" unicode="&#xe6;" horiz-adv-x="1798" 
d="M444 -18q-175 0 -276 94q-102 92 -102 237q0 154 108 242q107 88 322 88h237v59q0 71 -45 113q-46 43 -139 43q-86 0 -131 -39q-47 -41 -47 -98h-258q0 159 116 260q114 102 326 102q219 0 344 -131h8q125 131 330 131q233 0 365 -147q131 -146 131 -373v-106h-725
q3 -117 61 -181q58 -67 172 -67q169 0 209 123h268q-21 -149 -149 -250q-126 -100 -328 -100q-259 0 -391 188h-8q-120 -188 -398 -188zM1010 639h442q-3 97 -59 156t-156 59q-110 0 -166 -59q-58 -58 -61 -156zM504 199q105 0 168 57q61 58 61 139v58h-217q-89 0 -133 -33
q-45 -33 -45 -94q0 -59 43 -93t123 -34z" />
    <glyph glyph-name="ccedilla" unicode="&#xe7;" horiz-adv-x="1124" 
d="M1059 401q-9 -169 -115 -284q-104 -113 -293 -131l-43 -66q88 -3 144 -53q55 -52 55 -129q0 -85 -74 -141q-76 -58 -209 -58q-113 0 -186 55q-76 52 -76 148h168q0 -30 27 -45q25 -19 65 -19q37 0 68 17q28 16 28 45q0 28 -22 47q-26 16 -68 16h-65l-51 64l63 123
q-195 34 -303 178q-106 141 -106 364q0 252 135 402q134 149 379 149q222 0 344 -116q121 -121 133 -308h-277q-9 82 -61 134q-52 49 -139 49q-234 0 -234 -310q0 -309 234 -309q89 0 141 49q52 46 61 129h277z" />
    <glyph glyph-name="egrave" unicode="&#xe8;" horiz-adv-x="1136" 
d="M524 1194l-237 293v20h303l139 -293v-20h-205zM580 -18q-240 0 -377 155q-137 152 -137 393t133 398q131 155 376 155q233 0 365 -147q131 -146 131 -373v-106h-725q3 -116 62 -181q58 -67 172 -67q168 0 208 123h269q-21 -148 -150 -250q-126 -100 -327 -100zM348 639
h443q-3 95 -58 156q-56 59 -158 59q-109 0 -165 -59q-59 -59 -62 -156z" />
    <glyph glyph-name="eacute" unicode="&#xe9;" horiz-adv-x="1136" 
d="M446 1194v20l142 293h301v-20l-238 -293h-205zM580 -18q-240 0 -377 155q-137 152 -137 393t133 398q131 155 376 155q233 0 365 -147q131 -146 131 -373v-106h-725q3 -116 62 -181q58 -67 172 -67q168 0 208 123h269q-21 -148 -150 -250q-126 -100 -327 -100zM348 639
h443q-3 95 -58 156q-56 59 -158 59q-109 0 -165 -59q-59 -59 -62 -156z" />
    <glyph glyph-name="ecircumflex" unicode="&#xea;" horiz-adv-x="1136" 
d="M233 1198v21l197 284h303l199 -284v-21h-223l-123 125h-8l-123 -125h-222zM580 -18q-240 0 -377 155q-137 152 -137 393t133 398q131 155 376 155q233 0 365 -147q131 -146 131 -373v-106h-725q3 -116 62 -181q58 -67 172 -67q168 0 208 123h269q-21 -148 -150 -250
q-126 -100 -327 -100zM348 639h443q-3 95 -58 156q-56 59 -158 59q-109 0 -165 -59q-59 -59 -62 -156z" />
    <glyph glyph-name="edieresis" unicode="&#xeb;" horiz-adv-x="1136" 
d="M258 1239v250h250v-250h-250zM655 1239v250h248v-250h-248zM580 -18q-240 0 -377 155q-137 152 -137 393t133 398q131 155 376 155q233 0 365 -147q131 -146 131 -373v-106h-725q3 -116 62 -181q58 -67 172 -67q168 0 208 123h269q-21 -148 -150 -250
q-126 -100 -327 -100zM348 639h443q-3 95 -58 156q-56 59 -158 59q-109 0 -165 -59q-59 -59 -62 -156z" />
    <glyph glyph-name="igrave" unicode="&#xec;" horiz-adv-x="505" 
d="M211 1194l-238 293v20h303l140 -293v-20h-205zM125 0v1065h274v-1065h-274z" />
    <glyph glyph-name="iacute" unicode="&#xed;" horiz-adv-x="505" 
d="M133 1194v20l141 293h301v-20l-237 -293h-205zM125 0v1065h274v-1065h-274z" />
    <glyph glyph-name="icircumflex" unicode="&#xee;" horiz-adv-x="505" 
d="M-80 1198v21l197 284h303l198 -284v-21h-223l-123 125h-8l-123 -125h-221zM125 0v1065h274v-1065h-274z" />
    <glyph glyph-name="idieresis" unicode="&#xef;" horiz-adv-x="505" 
d="M-55 1239v250h250v-250h-250zM342 1239v250h248v-250h-248zM125 0v1065h274v-1065h-274z" />
    <glyph glyph-name="eth" unicode="&#xf0;" horiz-adv-x="1165" 
d="M1100 532v-2q0 -244 -133 -395q-135 -153 -383 -153q-250 0 -383 151q-135 150 -135 397t135 400t383 153q11 0 65 -4q-44 56 -123 133l-245 -108l-64 143l178 80q-119 93 -254 168v21h279q93 -52 162 -107l223 100l65 -143l-151 -68q366 -334 381 -739v-2v-20v-2v-3z
M584 223q237 0 237 307q0 312 -237 312q-238 0 -238 -312q0 -307 238 -307z" />
    <glyph glyph-name="ntilde" unicode="&#xf1;" horiz-adv-x="1196" 
d="M778 1204q-74 0 -139 39l-31 17q-48 26 -76 26q-61 0 -61 -78h-170v31q0 117 59 182q58 64 156 64q59 0 143 -41l31 -17q54 -28 76 -28q57 0 57 82h168v-31q0 -246 -213 -246zM125 0v1065h246l20 -121h8q106 139 303 139q176 0 283 -104q105 -105 105 -281v-698h-275v621
q0 213 -197 213q-97 0 -157 -66q-62 -65 -62 -178v-590h-274z" />
    <glyph glyph-name="ograve" unicode="&#xf2;" horiz-adv-x="1165" 
d="M532 1194l-237 293v20h303l139 -293v-20h-205zM584 -18q-250 0 -383 151q-135 150 -135 397t135 400t383 153q246 0 381 -153t135 -400q0 -244 -133 -395q-135 -153 -383 -153zM584 223q237 0 237 307q0 312 -237 312q-238 0 -238 -312q0 -307 238 -307z" />
    <glyph glyph-name="oacute" unicode="&#xf3;" horiz-adv-x="1165" 
d="M455 1194v20l141 293h301v-20l-238 -293h-204zM584 -18q-250 0 -383 151q-135 150 -135 397t135 400t383 153q246 0 381 -153t135 -400q0 -244 -133 -395q-135 -153 -383 -153zM584 223q237 0 237 307q0 312 -237 312q-238 0 -238 -312q0 -307 238 -307z" />
    <glyph glyph-name="ocircumflex" unicode="&#xf4;" horiz-adv-x="1165" 
d="M242 1198v21l196 284h303l199 -284v-21h-223l-123 125h-8l-123 -125h-221zM584 -18q-250 0 -383 151q-135 150 -135 397t135 400t383 153q246 0 381 -153t135 -400q0 -244 -133 -395q-135 -153 -383 -153zM584 223q237 0 237 307q0 312 -237 312q-238 0 -238 -312
q0 -307 238 -307z" />
    <glyph glyph-name="otilde" unicode="&#xf5;" horiz-adv-x="1165" 
d="M690 1204q-74 0 -139 39l-31 17q-48 26 -76 26q-61 0 -61 -78h-170v31q0 117 59 182q58 64 156 64q59 0 143 -41l31 -17q51 -28 76 -28q57 0 57 82h168v-31q0 -246 -213 -246zM584 -18q-250 0 -383 151q-135 150 -135 397t135 400t383 153q246 0 381 -153t135 -400
q0 -244 -133 -395q-135 -153 -383 -153zM584 223q237 0 237 307q0 312 -237 312q-238 0 -238 -312q0 -307 238 -307z" />
    <glyph glyph-name="odieresis" unicode="&#xf6;" horiz-adv-x="1165" 
d="M266 1239v250h250v-250h-250zM664 1239v250h247v-250h-247zM584 -18q-250 0 -383 151q-135 150 -135 397t135 400t383 153q246 0 381 -153t135 -400q0 -244 -133 -395q-135 -153 -383 -153zM584 223q237 0 237 307q0 312 -237 312q-238 0 -238 -312q0 -307 238 -307z" />
    <glyph glyph-name="divide" unicode="&#xf7;" horiz-adv-x="1003" 
d="M502 864q-71 0 -109 41q-39 39 -39 109q0 69 39 108q38 41 109 41q69 0 110 -41q39 -39 39 -108q0 -70 -39 -109q-41 -41 -110 -41zM10 528v226h983v-226h-983zM502 119q-71 0 -109 41q-39 39 -39 110q0 70 39 109q36 39 109 39q71 0 110 -39t39 -109q0 -71 -39 -110
q-41 -41 -110 -41z" />
    <glyph glyph-name="oslash" unicode="&#xf8;" horiz-adv-x="1165" 
d="M963 932q137 -149 137 -402q0 -244 -133 -395q-135 -153 -383 -153q-119 0 -209 34l-80 -122h-221v20l135 211q-143 143 -143 405q0 247 135 400t383 153q122 0 213 -39l69 109h226v-20zM346 530q0 -81 23 -155l290 456q-46 11 -75 11q-238 0 -238 -312zM584 223
q237 0 237 307q0 93 -20 152l-289 -451q27 -8 72 -8z" />
    <glyph glyph-name="ugrave" unicode="&#xf9;" horiz-adv-x="1187" 
d="M547 1194l-238 293v20h303l140 -293v-20h-205zM508 -18q-177 0 -281 104q-106 103 -106 281v698h274v-621q0 -213 197 -213q97 0 160 66q59 65 59 178v590h274v-1065h-245l-21 121h-8q-106 -139 -303 -139z" />
    <glyph glyph-name="uacute" unicode="&#xfa;" horiz-adv-x="1187" 
d="M469 1194v20l141 293h301v-20l-237 -293h-205zM508 -18q-177 0 -281 104q-106 103 -106 281v698h274v-621q0 -213 197 -213q97 0 160 66q59 65 59 178v590h274v-1065h-245l-21 121h-8q-106 -139 -303 -139z" />
    <glyph glyph-name="ucircumflex" unicode="&#xfb;" horiz-adv-x="1187" 
d="M256 1198v21l197 284h303l198 -284v-21h-223l-123 125h-8l-123 -125h-221zM508 -18q-177 0 -281 104q-106 103 -106 281v698h274v-621q0 -213 197 -213q97 0 160 66q59 65 59 178v590h274v-1065h-245l-21 121h-8q-106 -139 -303 -139z" />
    <glyph glyph-name="udieresis" unicode="&#xfc;" horiz-adv-x="1187" 
d="M281 1239v250h249v-250h-249zM678 1239v250h248v-250h-248zM508 -18q-177 0 -281 104q-106 103 -106 281v698h274v-621q0 -213 197 -213q97 0 160 66q59 65 59 178v590h274v-1065h-245l-21 121h-8q-106 -139 -303 -139z" />
    <glyph glyph-name="yacute" unicode="&#xfd;" horiz-adv-x="1138" 
d="M457 1194v20l141 293h301v-20l-237 -293h-205zM27 1065h282l246 -778h8l254 778h295v-21l-551 -1513h-295v20l162 451l-39 2l-362 1040v21z" />
    <glyph glyph-name="thorn" unicode="&#xfe;" horiz-adv-x="1228" 
d="M702 1083q197 0 318 -151q119 -152 119 -402q0 -242 -117 -395t-320 -153q-191 0 -294 133h-9v-584h-274v1985h274v-566h9q103 133 294 133zM625 223q121 0 180 86q55 82 55 221q0 141 -55 226q-59 86 -180 86q-120 0 -179 -86q-57 -86 -57 -226q0 -141 57 -221
q56 -86 179 -86z" />
    <glyph glyph-name="ydieresis" unicode="&#xff;" horiz-adv-x="1138" 
d="M268 1239v250h250v-250h-250zM666 1239v250h247v-250h-247zM27 1065h282l246 -778h8l254 778h295v-21l-551 -1513h-295v20l162 451l-39 2l-362 1040v21z" />
    <glyph glyph-name="dotlessi" unicode="&#x131;" horiz-adv-x="505" 
d="M125 0v1065h274v-1065h-274z" />
    <glyph glyph-name="OE" unicode="&#x152;" horiz-adv-x="2242" 
d="M2148 1182h-712v-318h649v-250h-649v-364h712v-250h-993v98q-162 -116 -397 -116q-328 0 -504 206q-174 204 -174 529q0 326 174 530q175 205 504 205q232 0 397 -115v97h993v-252zM758 238q194 0 293 129q98 125 98 350q0 224 -98 352q-100 127 -293 127t-293 -127
q-98 -128 -98 -352q0 -225 98 -350q99 -129 293 -129z" />
    <glyph glyph-name="oe" unicode="&#x153;" horiz-adv-x="1890" 
d="M1825 563v-106h-723q3 -117 61 -181q58 -67 172 -67q165 0 209 123h266q-20 -146 -149 -250q-126 -100 -326 -100q-236 0 -368 153q-138 -153 -383 -153q-250 0 -383 151q-135 150 -135 397t135 400t383 153q240 0 379 -151q133 151 366 151q232 0 365 -145
q131 -146 131 -375zM1104 639h440q-3 96 -57 156q-56 59 -158 59q-108 0 -164 -59q-58 -58 -61 -156zM584 223q237 0 237 307q0 312 -237 312q-238 0 -238 -312q0 -307 238 -307z" />
    <glyph glyph-name="circumflex" unicode="&#x2c6;" horiz-adv-x="811" 
d="M57 1198v21l197 284h303l199 -284v-21h-224l-122 125h-9l-122 -125h-222z" />
    <glyph glyph-name="ring" unicode="&#x2da;" horiz-adv-x="602" 
d="M301 1165q-101 0 -170 66q-68 65 -68 164q0 101 68 166t170 65q106 0 172 -63q66 -66 66 -168q0 -98 -66 -164q-69 -66 -172 -66zM299 1305q44 0 70 26q24 24 24 64q0 38 -24 65q-27 27 -70 27q-42 0 -66 -27t-24 -65q0 -40 24 -64q23 -26 66 -26z" />
    <glyph glyph-name="tilde" unicode="&#x2dc;" horiz-adv-x="788" 
d="M526 1204q-74 0 -139 39l-31 17q-48 26 -75 26q-62 0 -62 -78h-170v31q0 116 60 182q58 64 155 64q60 0 144 -41l30 -17q51 -28 76 -28q57 0 57 82h168v-31q0 -246 -213 -246z" />
    <glyph glyph-name="endash" unicode="&#x2013;" horiz-adv-x="1273" 
d="M123 477v246h1028v-246h-1028z" />
    <glyph glyph-name="emdash" unicode="&#x2014;" horiz-adv-x="2256" 
d="M123 477v246h2011v-246h-2011z" />
    <glyph glyph-name="quoteleft" unicode="&#x2018;" horiz-adv-x="477" 
d="M422 1434v-21l-64 -493h-305v20l158 494h211z" />
    <glyph glyph-name="quoteright" unicode="&#x2019;" horiz-adv-x="477" 
d="M55 920v20l64 494h305v-21l-158 -493h-211z" />
    <glyph glyph-name="quotesinglbase" unicode="&#x201a;" horiz-adv-x="477" 
d="M55 -289v21l64 493h305v-20l-158 -494h-211z" />
    <glyph glyph-name="quotedblleft" unicode="&#x201c;" horiz-adv-x="882" 
d="M422 1434v-21l-64 -493h-305v20l158 494h211zM827 1434v-21l-63 -493h-305v20l157 494h211z" />
    <glyph glyph-name="quotedblright" unicode="&#x201d;" horiz-adv-x="882" 
d="M55 920v20l64 494h305v-21l-158 -493h-211zM461 920v20l63 494h305v-21l-157 -493h-211z" />
    <glyph glyph-name="quotedblbase" unicode="&#x201e;" horiz-adv-x="882" 
d="M55 -289v21l64 493h305v-20l-158 -494h-211zM461 -289v21l63 493h305v-20l-157 -494h-211z" />
    <glyph glyph-name="dagger" unicode="&#x2020;" horiz-adv-x="952" 
d="M821 1184v-219h-225v-277l-35 -338h-170l-35 338v277h-225v219h225v250h240v-250h225z" />
    <glyph glyph-name="daggerdbl" unicode="&#x2021;" horiz-adv-x="952" 
d="M586 965l-25 -248l27 -246h233v-221h-225v-250h-240v250h-225v221h234l26 246l-24 248h-236v219h225v250h240v-250h225v-219h-235z" />
    <glyph glyph-name="bullet" unicode="&#x2022;" horiz-adv-x="790" 
d="M395 319q-128 0 -200 78t-72 205q0 123 72 201q70 76 200 76q128 0 201 -76q72 -78 72 -201q0 -127 -72 -205t-201 -78z" />
    <glyph glyph-name="ellipsis" unicode="&#x2026;" horiz-adv-x="1693" 
d="M96 0v293h303v-293h-303zM696 0v293h303v-293h-303zM1292 0v293h303v-293h-303z" />
    <glyph glyph-name="perthousand" unicode="&#x2030;" horiz-adv-x="2494" 
d="M430 713q-156 0 -242 102q-88 101 -88 270q0 170 88 271q86 102 242 102t244 -102q86 -103 86 -271q0 -167 -86 -270q-88 -102 -244 -102zM260 0v20l971 1414h229v-21l-966 -1413h-234zM430 893q137 0 137 192q0 193 -137 193t-137 -193q0 -192 137 -192zM1305 -18
q-157 0 -242 102q-88 101 -88 270q0 170 88 271q85 102 242 102q155 0 243 -102q86 -103 86 -271q0 -167 -86 -270q-88 -102 -243 -102zM2064 -18q-155 0 -241 102q-88 101 -88 270q0 170 88 271q86 102 241 102q156 0 244 -102q88 -101 88 -271q0 -169 -88 -270
q-88 -102 -244 -102zM1305 162q137 0 137 192q0 193 -137 193q-138 0 -138 -193q0 -192 138 -192zM2064 162q138 0 138 192q0 193 -138 193q-135 0 -135 -193q0 -192 135 -192z" />
    <glyph glyph-name="guilsinglleft" unicode="&#x2039;" horiz-adv-x="729" 
d="M393 135l-340 434v21l340 434h258v-20l-286 -424l286 -424v-21h-258z" />
    <glyph glyph-name="guilsinglright" unicode="&#x203a;" horiz-adv-x="729" 
d="M80 135v21l287 424l-287 424v20h258l340 -434v-21l-340 -434h-258z" />
    <glyph glyph-name="fraction" unicode="&#x2044;" horiz-adv-x="1130" 
d="M-20 -205v21l911 1822h260v-20l-907 -1823h-264z" />
    <glyph glyph-name="Euro" unicode="&#x20ac;" horiz-adv-x="1542" 
d="M846 236q148 0 229 75q84 75 105 197h284q-24 -230 -190 -377q-168 -149 -428 -149q-254 0 -418 129q-163 125 -225 346h-123v184h92q-2 16 -2 74q0 45 2 59h-92v184h119q59 233 223 363q165 131 424 131q261 0 432 -154q168 -152 186 -387h-286q-12 123 -97 205
q-83 80 -235 80q-261 0 -350 -238h462l-40 -184h-459q-2 -12 -2 -59q0 -58 2 -74h428l-41 -184h-344q89 -221 344 -221z" />
    <glyph glyph-name="trademark" unicode="&#x2122;" horiz-adv-x="1497" 
d="M262 764v526h-199v144h553v-144h-196v-526h-158zM711 764v670h174l188 -314h6l185 314h174v-670h-148v430h-6l-197 -320h-20l-203 324h-6v-434h-147z" />
    <glyph glyph-name="minus" unicode="&#x2212;" horiz-adv-x="1003" 
d="M10 524v234h983v-234h-983z" />
    </font>
</defs>
</svg>
